extratorrent - A Fan Made Alternative Login   |   Register
Important Information
Registrations are open now
-------------------------------------

Please click here to register with Extratorrent2 to recieve latest updates, add bookmarks and to post comments.

Friends
Friends

1) ProxyFix

Extratorrent2 > Categories > Movies > Case 39 (2009) 1080p BluRay Hindi DD 2.0Ch - Eng DD 5.1Ch ~ MANN KT torrent


Browse Movies torrents

Case 39 (2009) 1080p BluRay Hindi DD 2.0Ch - Eng DD 5.1Ch ~ MANN KT torrent


Download torrent: Download Case 39 (2009) 1080p BluRay Hindi DD 2.0Ch - Eng DD 5.1Ch ~ MANN KT torrent Magnet link Bookmark Torrent: Case 39 (2009) 1080p BluRay Hindi DD 2.0Ch - Eng DD 5.1Ch ~ MANN KT   Case 39 (2009) 1080p BluRay Hindi DD 2.0Ch - Eng DD 5.1Ch ~ MANN KT torrent
Info hash: 58BD4B69649CFCD265C64A50671F7D7B02765A73
Category: Categories > Movies
Trackers:
View all torrent trackers >
Health:
 seeds: 3 ,  leechers: 5 |  Update >
Torrent language: English English
Total Size: 3.2 GB
Files List:
3    View torrent files >
Uploader:
THEGABRU
Torrent added: July 21, 2018, 4:04 am
Users rating: ---, not rated. please login to rate.

Download Case 39 (2009) 1080p BluRay Hindi DD 2.0Ch - Eng DD 5.1Ch ~ MANN KT torrent



Torrent Description

Case 39 (2009) 1080p BluRay Hindi DD 2.0Ch - Eng DD 5.1Ch ~ MANN KT



General

Format : Matroska
Format version : Version 4 / Version 2
File size : 3.15 GiB
Duration : 1 h 49 min
Overall bit rate : 4 115 kb/s
Movie name : MANN KT


Video
ID : 1
Format : AVC
Format/Info : Advanced Video Codec
Format profile :
Format settings, CABAC : Yes
Format settings, ReFrames : 4 frames
Codec ID : V_MPEG4/ISO/AVC
Duration : 1 h 49 min
Bit rate : 3 500 kb/s
Width : 1 920 pixels
Height : 816 pixels
Display aspect ratio : 2.35:1
Frame rate mode : Constant
Frame rate : 23.976 (24000/1001) FPS
Color space : YUV
Chroma subsampling : 4:2:0
Bit depth : 8 bits
Scan type : Progressive
Bits/(Pixel*Frame) : 0.093
Stream size : 2.67 GiB (85%)
Title : MANN KT
Language : English
Default : Yes
Forced : No

Audio #1
ID : 2
Format : AC-3
Format/Info : Audio Coding 3
Format profile : Dolby Digital
Mode extension : CM (complete main)
Format settings, Endianness : Big
Codec ID : A_AC3
Duration : 1 h 49 min
Bit rate mode : Constant
Bit rate : 224 kb/s
Channel(s) : 2 channels
Channel positions : Front: L R
Sampling rate : 48.0 kHz
Frame rate : 31.250 FPS (1536 spf)
Bit depth : 16 bits
Compression mode : Lossy
Stream size : 175 MiB (5%)
Title : MANN KT
Language : Hindi
Default : Yes
Forced : Yes

Audio #2
ID : 3
Format : AC-3
Format/Info : Audio Coding 3
Mode extension : CM (complete main)
Format settings, Endianness : Big
Codec ID : A_AC3
Duration : 1 h 49 min
Bit rate mode : Constant
Bit rate : 384 kb/s
Channel(s) : 6 channels
Channel positions : Front: L C R, Side: L R, LFE
Sampling rate : 48.0 kHz
Frame rate : 31.250 FPS (1536 spf)
Bit depth : 16 bits
Compression mode : Lossy
Stream size : 301 MiB (9%)
Title : MANN KT
Language : English
Default : No
Forced : No

Text
ID : 4
Format : PGS
Muxing mode : zlib
Codec ID : S_HDMV/PGS
Codec ID/Info : Picture based subtitle format used on BDs/HD-DVDs
Duration : 1 h 42 min
Bit rate : 26.3 kb/s
Count of elements : 1692
Stream size : 19.3 MiB (1%)
Title : MANN KT
Language : English
Default : No
Forced : No

SCREENSHOTS



ENJOY


Download Case 39 (2009) 1080p BluRay Hindi DD 2.0Ch - Eng DD 5.1Ch ~ MANN KT torrent


Related Torrents


Comments   (please login to add your comment!)


Home - Browse Torrents

Made with love by an Extratorrent Fan!