extratorrent - A Fan Made Alternative Login   |   Register
Important Information
Registrations are open now
-------------------------------------

Please click here to register with Extratorrent2 to recieve latest updates, add bookmarks and to post comments.

Friends
Friends

1) ProxyFix

Extratorrent2 > Categories > Movies > Case 39 2009 720p BluRay x264 Dual Audio [Hindi 2.0 - English 2.0] ESub [MW] torrent


Browse Movies torrents

Case 39 2009 720p BluRay x264 Dual Audio [Hindi 2.0 - English 2.0] ESub [MW] torrent


Download torrent: Download Case 39 2009 720p BluRay x264 Dual Audio [Hindi 2.0 - English 2.0] ESub [MW] torrent Magnet link Bookmark Torrent: Case 39 2009 720p BluRay x264 Dual Audio [Hindi 2.0 - English 2.0] ESub [MW]   Case 39 2009 720p BluRay x264 Dual Audio [Hindi 2.0 - English 2.0] ESub [MW] torrent
Info hash: 03C2F38EF5BB9ACB9AA05AD5BADE75B35A5AEC60
Category: Categories > Movies
Trackers:
View all torrent trackers >
Health:
 seeds: 9 ,  leechers: 10 |  Update >
Torrent language: Hindi Hindi
Total Size: 925.2 MB
Files List:
1    View torrent files >
Uploader:
moviezworldz
Torrent added: September 26, 2018, 3:30 pm
Tags: Horror, Mystery, Thriller
Users rating: ---, not rated. please login to rate.

Download Case 39 2009 720p BluRay x264 Dual Audio [Hindi 2.0 - English 2.0] ESub [MW] torrent



Torrent Description





General
Format : Matroska
Format version : Version 4 / Version 2
File size : 925 MiB
Duration : 1 h 49 min
Overall bit rate : 1 182 kb/s

Video
ID : 1
Format : AVC
Format/Info : Advanced Video Codec
Format profile :
Format settings : CABAC / 9 Ref Frames
Format settings, CABAC : Yes
Format settings, RefFrames : 9 frames
Codec ID : V_MPEG4/ISO/AVC
Duration : 1 h 49 min
Bit rate : 865 kb/s
Width : 1 280 pixels
Height : 544 pixels
Display aspect ratio : 2.35:1
Frame rate mode : Constant
Frame rate : 23.976 (24000/1001) FPS
Color space : YUV
Chroma subsampling : 4:2:0
Bit depth : 8 bits
Scan type : Progressive
Bits/(Pixel*Frame) : 0.052
Stream size : 677 MiB (73%)
Writing library : x264 core 129 r2230 1cffe9f
Default : Yes
Forced : No

Audio #1
ID : 2
Format : AAC
Format/Info : Advanced Audio Codec
Format profile : LC
Codec ID : A_AAC-2
Duration : 1 h 49 min
Bit rate : 224 kb/s
Channel(s) : 2 channels
Channel positions : Front: L R
Sampling rate : 48.0 kHz
Frame rate : 46.875 FPS (1024 SPF)
Compression mode : Lossy
Stream size : 175 MiB (19%)
Language : Hindi
Default : Yes
Forced : No

Audio #2
ID : 3
Format : AAC
Format/Info : Advanced Audio Codec
Format profile : LC
Codec ID : A_AAC-2
Duration : 1 h 47 min
Bit rate : 92.0 kb/s
Channel(s) : 2 channels
Channel positions : Front: L R
Sampling rate : 48.0 kHz
Frame rate : 46.875 FPS (1024 SPF)
Compression mode : Lossy
Stream size : 70.7 MiB (8%)
Language : English
Default : No
Forced : No

Text
ID : 4
Format : UTF-8
Codec ID : S_TEXT/UTF8
Codec ID/Info : UTF-8 Plain Text
Duration : 1 h 43 min
Bit rate : 41 b/s
Count of elements : 847
Stream size : 31.4 KiB (0%)
Default : Yes
Forced : No


Click To Enlarge Image









Download Case 39 2009 720p BluRay x264 Dual Audio [Hindi 2.0 - English 2.0] ESub [MW] torrent


Related Torrents


Comments   (please login to add your comment!)

naked photos     pompeii 2014 1080p hindi     vanishing waves     the place     anal negotiations     dammu     fall     first aid kit stay gold     panic     ita jurassic park     sachin farewell     ps4 yakuza     toli prema     deadpool 320kbps     scourge outbreak     mors     elsa jean     eva     miyabi     walk like a panther 2018     outlander xvid     the bridge season 2     estate     windows xp iso     


Home - Browse Torrents

Made with love by an Extratorrent Fan!