extratorrent - A Fan Made Alternative Login   |   Register
Important Information
Registrations are open now
-------------------------------------

Please click here to register with Extratorrent2 to recieve latest updates, add bookmarks and to post comments.

Friends
Friends

1) ProxyFix

Extratorrent2 > Categories > Anime > Parker (2013) 720p Hindi Dubbed + English HDRip x264 AAC by Full4movies torrent


Browse Anime torrents

Parker (2013) 720p Hindi Dubbed + English HDRip x264 AAC by Full4movies torrent


Download torrent: Download Parker (2013) 720p Hindi Dubbed + English HDRip x264 AAC by Full4movies torrent Magnet link Bookmark Torrent: Parker (2013) 720p Hindi Dubbed + English HDRip x264 AAC by Full4movies   Parker (2013) 720p Hindi Dubbed + English HDRip x264 AAC by Full4movies torrent
Info hash: B434460258339104FA1C09EDCEB427C569A57573
Category: Categories > Anime
Trackers:
View all torrent trackers >
Health:
 seeds: 9 ,  leechers: 2 |  Update >
Torrent language: Hindi Hindi
Total Size: 974.8 MB
Files List:
1    View torrent files >
Uploader:
shmasti
Torrent added: October 23, 2018, 4:40 am
Tags: Action, Crime, Romance
Users rating: ---, not rated. please login to rate.

Download Parker (2013) 720p Hindi Dubbed + English HDRip x264 AAC by Full4movies torrent



Torrent Description



General
Complete name                  : Parker (2013) 720p Hindi Dubbed + English HDRip x264 AAC by Full4movies.mkv
Format                         : Matroska
Format version                 : Version 4 / Version 2
File size                      : 975 MiB
Duration                       : 1 h 58 min
Overall bit rate mode          : Variable
Overall bit rate               : 1 148 kb/s
Movie name                     : www.Full4movies.co
Encoded date                   : UTC 2018-10-19 16:39:45
Writing application            : mkvmerge v8.1.0 ('Psychedelic Postcard') 32bit
Writing library                : libebml v1.3.1 + libmatroska v1.4.2

Video
ID                             : 1
Format                         : AVC
Format/Info                    : Advanced Video Codec
Format profile                 :
Format settings, CABAC         : Yes
Format settings, RefFrames     : 8 frames
Codec ID                       : V_MPEG4/ISO/AVC
Duration                       : 1 h 58 min
Bit rate                       : 926 kb/s
Width                          : 1 280 pixels
Height                         : 536 pixels
Display aspect ratio           : 2.40:1
Frame rate mode                : Constant
Frame rate                     : 23.976 (24000/1001) FPS
Original frame rate            : 23.976 (23976/1000) FPS
Color space                    : YUV
Chroma subsampling             : 4:2:0
Bit depth                      : 8 bits
Scan type                      : Progressive
Bits/(Pixel*Frame)             : 0.056
Stream size                    : 786 MiB (81%)
Title                          : www.Full4movies.co
Writing library                : x264 core 132 r2 3b1f1f7
Language                       : English
Default                        : Yes
Forced                         : Yes

Audio #1
ID                             : 2
Format                         : MPEG Audio
Format version                 : Version 1
Format profile                 : Layer 3
Mode                           : Joint stereo
Mode extension                 : MS Stereo
Codec ID                       : A_MPEG/L3
Codec ID/Hint                  : MP3
Duration                       : 1 h 58 min
Bit rate mode                  : Variable
Bit rate                       : 128 kb/s
Channel(s)                     : 2 channels
Sampling rate                  : 44.1 kHz
Frame rate                     : 38.281 FPS (1152 SPF)
Compression mode               : Lossy
Stream size                    : 105 MiB (11%)
Title                          : www.Full4movies.co
Writing library                : LAME3.99r
Encoding settings              : -m j -V 4 -q 3 -lowpass 17 --abr 128
Language                       : Hindi
Default                        : Yes
Forced                         : Yes

Audio #2
ID                             : 3
Format                         : AAC
Format/Info                    : Advanced Audio Codec
Format profile                 : LC
Codec ID                       : A_AAC
Duration                       : 1 h 58 min
Bit rate                       : 96.0 kb/s
Channel(s)                     : 2 channels
Channel positions              : Front: L R
Sampling rate                  : 48.0 kHz
Frame rate                     : 46.875 FPS (1024 SPF)
Compression mode               : Lossy
Stream size                    : 81.3 MiB (8%)
Language                       : English
Default                        : No
Forced                         : No

Text
ID                             : 4
Format                         : UTF-8
Codec ID                       : S_TEXT/UTF8
Codec ID/Info                  : UTF-8 Plain Text
Duration                       : 40 min 23 s
Bit rate                       : 74 b/s
Count of elements              : 730
Stream size                    : 22.0 KiB (0%)
Language                       : English
Default                        : Yes
Forced                         : Yes

Screen Shoots


Download Parker (2013) 720p Hindi Dubbed + English HDRip x264 AAC by Full4movies torrent




Comments   (please login to add your comment!)

soe     idm     jalebi     eros cristaldi     october     chess     liebesbriefe     the daily show 2017     missax     lola fae     zerotolerance     2016 yify     dance desi     sexy men     the snare 720p     teensloveblackcocks mia khalifa     lana rhodes pack     lovely 2012 telugu 720p     striptease 1996     extra     ann     vol 2     old porn     the lesbo of the year     


Home - Browse Torrents

Made with love by an Extratorrent Fan!